[eMule-Web]  

Zurück   [eMule-Web] > OffTopic > Filesharing

Filesharing Alles über Filesharing

Antwort
 
LinkBack Themen-Optionen
Alt 2. December 2012, 13:59   #1
Board Methusalem
 
Registriert seit: 13.02.2003
Beiträge: 3.315
Standard: nur 0.2 kb/s ?? Problem: nur 0.2 kb/s ??



nur 0.2 kb/s ??

Setz dich mal mit Torrents im Allgemeinen auseinander und dann verstehst du warum.



Du lädst nur von anderen Leuten runter. Wenn es keinen gibt, der grade die Teile hat, die du auch brauchst, dann bricht die Rate eben ein. Das ist nicht zu Vergleichen mit normalen Downloads von Webseiten.
burner ist offline   Mit Zitat antworten
Alt 2. December 2012, 15:08   #2
Board Methusalem
 
Registriert seit: 10.12.2002
Beiträge: 3.294
Standard: nur 0.2 kb/s ?? nur 0.2 kb/s ??

Zitat:
Setz dich mal mit Torrents im Allgemeinen auseinander und dann verstehst du warum.

Du lädst nur von anderen Leuten runter. Wenn es keinen gibt, der grade die Teile hat, die du auch brauchst, dann bricht die Rate eben ein. Das ist nicht zu Vergleichen mit normalen Downloads von Webseiten.

Phantomias ist offline   Mit Zitat antworten
Alt 2. December 2012, 16:37   #3
Board Methusalem
 
Registriert seit: 04.01.2003
Beiträge: 3.280
Standard: nur 0.2 kb/s ?? nur 0.2 kb/s ?? Details

nur 0.2 kb/s ?? (Download, uTorrent)
http://www.gutefrage.net/frage/nur-02-kbs-
Zitat:
also... ich hab LEIDER ein lan anschluss, da w-lan irgentwie ... Setz dich mal mit Torrents im Allgemeinen auseinander und dann verstehst du ...

Traffic Analysis for 202.141.62.25 -- isc_roorkee
http://www.iitr.ac.in/ernet/202.141.62.25_202.141.62.25.html
Zitat:
Max In: 476.1 kb/s (0.5%), Average In: 141.2 kb/s (0.1%), Current In: 94.2 kb/s ( 0.1%). Max Out: 2052.8 kb/s (2.1%), Average Out: 237.5 kb/s (0.2%), Current Out: ...

Spoiler:
USIC
http://www.iitr.ac.in/switch/192.168.121.254_192.168.118.254.html
Zitat:
Max In: 7036.8 kb/s (0.7%), Average In: 132.8 kb/s (0.0%), Current In: 2256.0 b/s ( 0.0%). Max Out: 48.1 Mb/s (4.8%), Average Out: 1831.6 kb/s (0.2%), Current ...

Fehlerbehebung - FAQ - Hilfe - µTorrent - ein (sehr) kleiner ...
http://www.utorrent.com/intl/de/help/faq/troubleshooting
Zitat:
Warum wird beim Seeden eine Downloadgeschwindigkeit von 0.1 - 0.2 KB/s angezeigt? ... Warum wird eine Restzeit (ETA) angezeigt, obwohl ich nur seede?

Hilfe für Anfänger (Torrent) - Forum - CHIP Online
http://forum.chip.de/webserver-webhosting-clouds/hilfe-fuer-anfaenger-torrent-935256.html
Zitat:
In der Regel hat er bei dem selbem Torrent meist 100 kb/s mehr an DL-Rate. ... Download Speed:avg 0.2 kb/s ... Wenn die wirklich nur avg:0,2Kbs hast würde ich sagen du bist nicht verbunden (lädst gar nicht) es handelt sich ...

Bürkle Fertigkeller - Qualitätskeller für Ihr Traumhaus! - Presse
http://www.buerkle-fertigkeller.de/de/presse.html
Zitat:
Über 50 Jahre Qualitätspolitik und ein neuer Markenauftritt ...

TS4 DVB Stream kopieren - linuxforen.de -- User helfen Usern
http://www.linuxforen.de/forums/showthread.php?t=274274
Zitat:
... Stream #0.2[0x17e9]: Audio: mp2, 48000 Hz, stereo, s16, 192 kb/s ... Interessant für mich ist nur das alle Stöme nicht versetzt sind und die ...

Muuta Streaming Server ? Gemini-Wiki
http://wiki.blue-panel.com/index.php/Muuta_Streaming_Server
Zitat:
16. Nov. 2012 ... Die Konfiguration sieht wie folgt aus (ist nur ein Auszug der ..... stereo, s16, 192 kb/s Stream #0.2[0x201](eng): Audio: mp2, 48000 Hz, stereo, ...


Xerves ist offline   Mit Zitat antworten
Antwort

Lesezeichen

Themen-Optionen

Forumregeln
Es ist Ihnen nicht erlaubt, neue Themen zu verfassen.
Es ist Ihnen nicht erlaubt, auf Beiträge zu antworten.
Es ist Ihnen nicht erlaubt, Anhänge hochzuladen.
Es ist Ihnen nicht erlaubt, Ihre Beiträge zu bearbeiten.

BB-Code ist an.
Smileys sind an.
[IMG] Code ist an.
HTML-Code ist aus.
Trackbacks are an
Pingbacks are an
Refbacks are an


Ähnliche Themen: nur 0.2 kb/s ??


  1. Nur Witze!!!...
    Board-Kneipe 'Laberecke' - 4. May 2012 (119)
  2. Rapidshare Download nur 30 kb/s
    Filesharing - 7. April 2012 (2)
  3. nix DL nur UL - wieso?
    Mülltonne - 15. August 2006 (1)
  4. iOnix 4.31 geht nur 1:1
    Mülltonne - 17. September 2005 (3)
  5. ständig nur uploads
    eMule für Neulinge - und auch alte Hasen - 13. July 2005 (4)
  6. immer nur low ID!!!! :-(
    Mülltonne - 15. November 2003 (2)
  7. nur 12 kb dl im durchschnitt
    eMule MODs - Allgemein - 17. June 2003 (2)
  8. Nur Probleme HILFEE
    eMule MODs - Allgemein - 8. June 2003 (5)
  9. Nur das Original !!!
    Board-Kneipe 'Laberecke' - 31. March 2003 (12)
  10. nur 6 Downloads gleichzeitig ???
    eMule MODs - Allgemein - 22. March 2003 (2)
  11. ist das normal: nur up- oder nur -download
    eMule MODs - Allgemein - 27. February 2003 (8)
  12. nur 0.5 UL please help
    eMule MODs - Allgemein - 23. January 2003 (11)


Alle Zeitangaben in WEZ +1. Es ist jetzt 14:45 Uhr.


Powered by vBulletin® Version 3.8.3 (Deutsch)
Copyright ©2000 - 2017, Jelsoft Enterprises Ltd.
SEO by vBSEO ©2011, Crawlability, Inc.
PAGERANK